Busque su archivo ...

Contador


Películas

Vertigo (De Entre los Muertos)(1958)(Suspense)(HDrip Dual castellano/ING AC-3 5.1)[Wu-Fp-fs]






  Vertigo (De Entre los Muertos)(1958)(Suspense)(HDrip Dual castellano/ING AC-3 5.1)[Wu-Fp-fs]
  Vertigo (De Entre los Muertos)(1958)(Suspense)(HDrip Dual castellano/ING AC-3 5.1)[Wu-Fp-fs]
  Vertigo (De Entre los Muertos)(1958)(Suspense)(HDrip Dual castellano/ING AC-3 5.1)[Wu-Fp-fs]

General
Complete name                            : D:\vertigoVertigo.evilsega.avi
Format                                   : AVI
Format/Info                              : Audio Video Interleave
File size                                : 1.46 GiB
Duration                                 : 2h 3mn
Overall bit rate                         : 1 685 Kbps
Writing application                      : VirtualDubMod 1.5.10.2 (build 2540/release)
Writing library                          : VirtualDubMod build 2540/release

Video
ID                                       : 0
Format                                   : MPEG-4 Visual
Format profile                           : Advanced Simple@L5
Format settings, BVOP                    : 2
Format settings, QPel                    : No
Format settings, GMC                     : No warppoints
Format settings, Matrix                  : Default (MPEG)
Codec ID                                 : XVID
Codec ID/Hint                            : XviD
Duration                                 : 2h 3mn
Bit rate                                 : 1 191 Kbps
Width                                    : 720 pixels
Height                                   : 400 pixels
Display aspect ratio                     : 16:9
Frame rate                               : 25.000 fps
Original frame rate                      : 23.976 fps
Color space                              : YUV
Chroma subsampling                       : 4:2:0
Bit depth                                : 8 bits
Scan type                                : Progressive
Compression mode                         : Lossy
Bits/(Pixel*Frame)                       : 0.165
Stream size                              : 1.03 GiB (71%)
Writing library                          : XviD 1.2.1 (UTC 2008-12-04)

Audio #1
ID                                       : 1
Format                                   : AC-3
Format/Info                              : Audio Coding 3
Mode extension                           : CM (complete main)
Codec ID                                 : 2000
Duration                                 : 2h 3mn
Bit rate mode                            : Constant
Bit rate                                 : 96.0 Kbps
Channel(s)                               : 1 channel
Channel positions                        : Front: C
Sampling rate                            : 48.0 KHz
Bit depth                                : 16 bits
Compression mode                         : Lossy
Stream size                              : 85.0 MiB (6%)
Alignment                                : Split accross interleaves
Interleave, duration                     : 40 ms (1.00 video frame)
Interleave, preload duration             : 500 ms

Audio #2
ID                                       : 2
Format                                   : AC-3
Format/Info                              : Audio Coding 3
Mode extension                           : CM (complete main)
Codec ID                                 : 2000
Duration                                 : 2h 3mn
Bit rate mode                            : Constant
Bit rate                                 : 384 Kbps
Channel(s)                               : 6 channels
Channel positions                        : Front: L C R, Side: L R, LFE
Sampling rate                            : 48.0 KHz
Bit depth                                : 16 bits
Compression mode                         : Lossy
Stream size                              : 340 MiB (23%)
Alignment                                : Split accross interleaves
Interleave, duration                     : 40 ms (1.00 video frame)
Interleave, preload duration             : 500 ms

  Vertigo (De Entre los Muertos)(1958)(Suspense)(HDrip Dual castellano/ING AC-3 5.1)[Wu-Fp-fs]
  Vertigo (De Entre los Muertos)(1958)(Suspense)(HDrip Dual castellano/ING AC-3 5.1)[Wu-Fp-fs]
  Vertigo (De Entre los Muertos)(1958)(Suspense)(HDrip Dual castellano/ING AC-3 5.1)[Wu-Fp-fs]
  Vertigo (De Entre los Muertos)(1958)(Suspense)(HDrip Dual castellano/ING AC-3 5.1)[Wu-Fp-fs]

  Vertigo (De Entre los Muertos)(1958)(Suspense)(HDrip Dual castellano/ING AC-3 5.1)[Wu-Fp-fs]
  Vertigo (De Entre los Muertos)(1958)(Suspense)(HDrip Dual castellano/ING AC-3 5.1)[Wu-Fp-fs]

  Vertigo (De Entre los Muertos)(1958)(Suspense)(HDrip Dual castellano/ING AC-3 5.1)[Wu-Fp-fs]
  Vertigo (De Entre los Muertos)(1958)(Suspense)(HDrip Dual castellano/ING AC-3 5.1)[Wu-Fp-fs]
  Vertigo (De Entre los Muertos)(1958)(Suspense)(HDrip Dual castellano/ING AC-3 5.1)[Wu-Fp-fs]


http://www.wupload.com/file/328621141/Vertigo.evilsega.part4.rar
http://www.wupload.com/file/328621053/Vertigo.evilsega.part2.rar
http://www.wupload.com/file/328610548/Vertigo.evilsega.part3.rar
http://www.wupload.com/file/328587863/Vertigo.evilsega.part1.rar



  Vertigo (De Entre los Muertos)(1958)(Suspense)(HDrip Dual castellano/ING AC-3 5.1)[Wu-Fp-fs]
  Vertigo (De Entre los Muertos)(1958)(Suspense)(HDrip Dual castellano/ING AC-3 5.1)[Wu-Fp-fs]
  Vertigo (De Entre los Muertos)(1958)(Suspense)(HDrip Dual castellano/ING AC-3 5.1)[Wu-Fp-fs]


http://filepost.com/files/5f89a9mb/Vertigo.evilsega.part1.rar/
http://filepost.com/files/1mf4m38e/Vertigo.evilsega.part2.rar/
http://filepost.com/files/f34em757/Vertigo.evilsega.part3.rar/
http://filepost.com/files/5dde4174/Vertigo.evilsega.part4.rar/


  Vertigo (De Entre los Muertos)(1958)(Suspense)(HDrip Dual castellano/ING AC-3 5.1)[Wu-Fp-fs]
  Vertigo (De Entre los Muertos)(1958)(Suspense)(HDrip Dual castellano/ING AC-3 5.1)[Wu-Fp-fs]
  Vertigo (De Entre los Muertos)(1958)(Suspense)(HDrip Dual castellano/ING AC-3 5.1)[Wu-Fp-fs]


http://www.filesonic.com/file/2389796941/Vertigo.evilsega.part4.rar
http://www.filesonic.com/file/2389755691/Vertigo.evilsega.part1.rar
http://www.filesonic.com/file/2389743991/Vertigo.evilsega.part2.rar
http://www.filesonic.com/file/2389744081/Vertigo.evilsega.part3.rar


  Vertigo (De Entre los Muertos)(1958)(Suspense)(HDrip Dual castellano/ING AC-3 5.1)[Wu-Fp-fs]




Descargar Vertigo (De Entre los Muertos)(1958)(Suspense)(HDrip Dual castellano/ING AC-3 5.1)[Wu-Fp-fs] [velocidad maxima]!





vistas : 143 9-01-2013, 11:02